Mp4 materijal sinhronizacija

Programi, Alati, Formati, Podešavanja, Konvertovanje, Enkodiranje, Mux, Demux, Remux, DVD authoring, Blu-ray Disc authoring, Rad sa subtitlovima, Zvukom (audiom)...

Moderatori: Video Majstor, djyova, prijateljv, Ilidan

Opis foruma
- Programi, Alati, Plejeri...
- Kodeci, Filtri, Podešavanja, Analiza...
- DVD authoring, Blu-ray Disc authoring...
- Rad sa subtitlovima, Ustimavanje subtitlova, Prevodjenje...
- Video kompresija, Formati, Konvertovanje, Enkodiranje, Mux, Demux, Remux...
- Obrada zvuka (audio), Muzički programi...
...itd.

Re: Mp4 materijal sinhronizacija

Postod Video Majstor » 09.11.2014 21:32

Evo i drugog poteza ukoliko ipak bude moralo da se menja i brzina audia.
Usporavanje ili ubrzavanje Audia:

1) Audio fajl koji treba da usporiš ili ubrzaš otovoriti u programu Audacity

2) U programu Audacity u meniju Effect klikni na opciju "Change Speed..."

3) U prozoru change speed treba da ukucaš koliko procenata će da bude brže il isporije u odnosu na sadašnju:
- Da bi usporio sa 25fps na 24fps ukucaj 4,166%
- Da bi usporio sa 25fps na 23.976fps ukucaj 4,270%
- Da bi ubrzao sa 24fps na 25fps ukucaj -4%
- Da bi ubrzao sa 23.976fps na 25fps ukucaj -4,096

4) Sada kada si obavio usporenje/ubrzanje treaba da sačuvaš novi audio fajl.
Pošto Audacity nema odmah ugrađen MP3 enkoder najalakše je, za sada, da zvuk sačuvaš kao nekompresovani .WAV
U meniju File izaberi "Export..."
zatim kao format fajla izaberi WAV (Microsoft)...


5) Kasnije da bih taj nekompresovani .VAW fajl kompresovao najbolje koristi Switch konverter http://www.videomajstor.com/vodic-softver-switch

6) I na kraju taj novi kompresovani fajl treba da muxuješ ponovo u novi container fajla zajedno sa videom odgovarjuće brzine. Za taj korak ako ti bude trebala pomoć, ćemo posebno da obajsnimo.


Eto najpre uradi ono iz prethodne poruke pa ako zatreba, onda i ovo, pa ćemo da vidimo šta se dešava?
Korisnikov avatar
Video Majstor
Član foruma
 
Postova:  1803
Pridružio se:  24.08.2010 21:20

Re: Mp4 materijal sinhronizacija

Postod gdada » 10.11.2014 13:53

Ono sto ste mi savetovali sam pokusao vec neznam koliko puta medjutim uvek je ton nesinhronizovan tako da na pocetku ima malo kasnjenje a pri kraju kasnjenje je oko 7 sekundi .
Evo i media info za oba videa.
Drugu metodu nemogu da koristim posto su oba mp4 materijaal a navedeni program neprepoznaje mp4 .
Kraja ocito nema, kao ni crtanog odlicnog kvaliteta slike i srpskog tona za moje klince .
:angry: :flag_of_truce:

Evo ovo su media info posle mkv gui prebacivanja drugog file u brzinu 23.976 kao sto ima prvi file.

1. mp4 video odlican , audio nepotreban (eng)

Format : MPEG-4
Format profile : Base Media / Version 2
Codec ID : mp42
File size : 220 MiB
Duration : 22mn 2s
Overall bit rate mode : Variable
Overall bit rate : 1 392 Kbps
Video
ID : 1
Format : AVC
Format/Info : Advanced Video Codec
Format profile : High@L3.1
Format settings, CABAC : Yes
Format settings, ReFrames : 1 frame
Codec ID : avc1
Codec ID/Info : Advanced Video Coding
Duration : 22mn 2s
Bit rate : 1 198 Kbps
Maximum bit rate : 9 643 Kbps
Width : 1 280 pixels
Height : 720 pixels
Display aspect ratio : 16:9
Frame rate mode : Constant
Frame rate : 23.976 fps
Color space : YUV
Chroma subsampling : 4:2:0
Bit depth : 8 bits
Scan type : Progressive
Bits/(Pixel*Frame) : 0.054
Stream size : 189 MiB (86%)


Audio
ID : 2
Format : AAC
Format/Info : Advanced Audio Codec
Format profile : LC
Codec ID : 40
Duration : 22mn 2s
Bit rate mode : Variable
Bit rate : 192 Kbps
Maximum bit rate : 202 Kbps
Channel(s) : 2 channels
Channel positions : Front: L R
Sampling rate : 44.1 KHz
Compression mode : Lossy
Stream size : 30.3 MiB (14%)


2.mp4 video los ali potreban srpski audio

Format : Matroska
Format version : Version 4 / Version 2
File size : 174 MiB
Duration : 22mn 9s
Overall bit rate : 1 100 Kbps
Encoded date : UTC 2014-11-10 09:13:58
Writing application : mkvmerge v6.6.0 ('The Edge Of The In Between') built on Dec 1 2013 17:55:00
Writing library : libebml v1.3.0 + libmatroska v1.4.1

Video
ID : 1
Format : AVC
Format/Info : Advanced Video Codec
Format profile : Baseline@L1.3
Format settings, CABAC : No
Format settings, ReFrames : 2 frames
Format settings, GOP : N=1
Codec ID : V_MPEG4/ISO/AVC
Duration : 22mn 9s
Bit rate : 950 Kbps
Nominal bit rate : 1 024 Kbps
Width : 720 pixels
Height : 576 pixels
Display aspect ratio : 16:9
Frame rate mode : Constant
Frame rate : 23.976 fps
Standard : PAL
Color space : YUV
Chroma subsampling : 4:2:0
Bit depth : 8 bits
Scan type : Progressive
Bits/(Pixel*Frame) : 0.096
Stream size : 151 MiB (86%)
Writing library : x264 core 119
Encoding settings : cabac=0 / ref=2 / deblock=1:0:0 / analyse=0x1:0x111 / me=umh / subme=6 / psy=1 / psy_rd=1.00:0.00 / mixed_ref=1 / me_range=16 / chroma_me=1 / trellis=0 / 8x8dct=0 / cqm=0 / deadzone=21,11 / fast_pskip=1 / chroma_qp_offset=-2 / threads=3 / sliced_threads=0 / nr=0 / decimate=1 / interlaced=0 / bluray_compat=0 / constrained_intra=0 / bframes=0 / weightp=0 / keyint=250 / keyint_min=25 / scenecut=40 / intra_refresh=0 / rc_lookahead=40 / rc=abr / mbtree=1 / bitrate=1024 / ratetol=1.0 / qcomp=0.60 / qpmin=0 / qpmax=69 / qpstep=4 / ip_ratio=1.40 / aq=1:1.00
Default : Yes
Forced : No

Audio
ID : 2
Format : MPEG Audio
Format version : Version 1
Format profile : Layer 3
Mode : Joint stereo
Codec ID : A_MPEG/L3
Codec ID/Hint : MP3
Duration : 22mn 9s
Bit rate mode : Constant
Bit rate : 128 Kbps
Channel(s) : 2 channels
Sampling rate : 48.0 KHz
Compression mode : Lossy
Stream size : 20.3 MiB (12%)
Default : Yes
Forced : No
gdada
Član foruma
 
Postova:  11
Pridružio se:  18.01.2012 18:08

Re: Mp4 materijal sinhronizacija

Postod Video Majstor » 12.11.2014 18:57

Nisu još isprobane sve mogućnosti. Deluje mi da je došlo do greške u opsima fajlova. Izgleda je pomešano koji video želiš da zadržiš a koji audio. Ne podudara se ono što si naspiao u prvoj i poslednjoj poruci....

Evo konkretnih koraka koje treba da napraviš:


1) priprema prvog fajla sa dobrim videom
Fajl koji ima dobar kavlitet videa a audio ti ne treba, uradi sledeće:
Ubaci fajl u program MKVToolNix (tačnije mkv merge GUI)
Stavi kvačicu samo u video.
Ukloni kvačicu sa Audio trake jer nam taj zvuk ne treba.
Sada daj naziv fajlu DOBARVIDEO.MKV i obavi muxovanje

tako dalje neće biti zabune koji je koji.
Dakle fajl koji dobiješ imaće samo video i zvaće se DOBARVIDEO.MKV


2A) priprema drugog fajla sa dobrim videom
Sada onaj drugi fajl u kojem imaš dobar zvuk, njega treba i remuxovati i treba konvertovati njegov audio u MP3 jer sa MP3 dalje neće biti problema ako audio budeš morao da prepravljaš u drugim programima. Postupak je sledeći:
- Instaliraj MediaCoder http://www.free-codecs.com/MediaCoder_download.htm
- pokreni program
- Prevuci fajl u kojem je dobar audio u prozor MediaCoder
- Na kartici "Video" stavi kvačicu na opciju "Copy Video" jer ćemo video samo da remuksujemo.
- Na kartici Audio izaberi "Format: MP3"
i "Encoder: LAME MP3"
- Na kartici "LAME MP3" podesi
"Rate Mode: CBR" i "Channel: Joint Stereo"
i bitrate stavi 320kbps
- Na kartici "Container" izaberi MKV
- Sada klikni na Start i dobićeš novi .mkv fajl u kojem ćeš imati nepotreban video i audio u MP3 formatu.

2B) demux i konverzija zvuka u MP3
Taj drugi fajl sada otvori u programu AviDemux
i demuxuj audio prema uputstvu koje sam već bio napisao:
Onaj fajl koji ima dobar zvuk je 23.976fps. Njega otvori sa programom AviDemux i izaberi
Audio > Save audio
i snimi zvuk u poseban fajl. Drugim rečima obavi demuxovanje audia.
Tom audio fajlu daj naziv ORIGINAL ZVUK NA SRPSKOM.MP3


I sada će sve biti spremno za one korake koji su već napisani u prethodnim porukama.
I molim te okači mediainfo sada od novih fajlova
DOBARVIDEO.MKV
i
ORIGINAL ZVUK NA SRPSKOM.MP3
Korisnikov avatar
Video Majstor
Član foruma
 
Postova:  1803
Pridružio se:  24.08.2010 21:20

Re: Mp4 materijal sinhronizacija

Postod gdada » 13.11.2014 11:18

Problem je u tome sto je pod 2b pogresno.
Naime kod mene je video file sa odlicnim kvalitetom slike brzine 23.976 fps a video file sa potrebnim zvukom brzine 25.000 fps.
Uradio sam sve kako ste napisali pod 1. Sta dalje ? Posto koraci pod 2 nisu ok zbog lose pretpostavke da je audio iz file brzine 23.976. :dash2:
Pozdrav i hvala na pomoci
gdada
Član foruma
 
Postova:  11
Pridružio se:  18.01.2012 18:08

Re: Mp4 materijal sinhronizacija

Postod Video Majstor » 13.11.2014 17:25

Dobro. Srećom kod tog koraka neme razlike u vezi frameratea. Dakle, u koraku 2B ignoriši to i računaj samo ovaj deo uputstva:
Njega otvori sa programom AviDemux i izaberi
Audio > Save audio
i snimi zvuk u poseban fajl. Drugim rečima obavi demuxovanje audia.
Dobićeš MP3 fajl koji ne zavisi o framerateu.

...idemo dalje.
Korisnikov avatar
Video Majstor
Član foruma
 
Postova:  1803
Pridružio se:  24.08.2010 21:20

Re: Mp4 materijal sinhronizacija

Postod gdada » 19.11.2014 13:30

Moja greska , naime video materijal sa potrebnim tonom je u sebi imao neizbacenih reklama , tako da ni sinhronizacija nije mogla da bude dobra.
Kada sam izbacio te reklame i uradio remux sa 25000 fps na 223.976 naravno i sinhronizacija je bila ok,
Hvala mnogo na pomoci :bb:
gdada
Član foruma
 
Postova:  11
Pridružio se:  18.01.2012 18:08
Prethodni

Vrati se na Video softver i Video kompresija

Ko je online

Korisnici koji su trenutno na forumu: Nema registrovanih korisnika i 1 gost

cron