m2ts u dvd sa rezolucijom 1920/1080

Programi, Alati, Formati, Podešavanja, Konvertovanje, Enkodiranje, Mux, Demux, Remux, DVD authoring, Blu-ray Disc authoring, Rad sa subtitlovima, Zvukom (audiom)...

Moderatori: Video Majstor, djyova, prijateljv, Ilidan

Opis foruma
- Programi, Alati, Plejeri...
- Kodeci, Filtri, Podešavanja, Analiza...
- DVD authoring, Blu-ray Disc authoring...
- Rad sa subtitlovima, Ustimavanje subtitlova, Prevodjenje...
- Video kompresija, Formati, Konvertovanje, Enkodiranje, Mux, Demux, Remux...
- Obrada zvuka (audio), Muzički programi...
...itd.

Re: m2ts u dvd sa rezolucijom 1920/1080

Postod autobus » 14.05.2014 12:46

Video Majstor je napisao:
i kako da radim i sa kojim programom montažu( efekti, tranzicije, pozadinska glazba itd). Neki jednostavni i i besplatni program. Može li to i DVD FLICK?
Pošto si koristio Ulead VideoStudio, on se sada zove Corel VideoStudio pa pretpostavljam da bi se sa njim lako snašao.

Inače od besplatnih, jedini koji nešto vredi je Windows Movie Maker 2012 i on je odličan za početnike: http://windows.microsoft.com/en-us/wind ... r-download

Što se tiče samog arhiviranja video materijala ako ga želim gledati za 10-ak, 20-ak godina, kako? ja sam zato i pržio sve na DVD JER SAM MISLIO DA JE TO NAJSIGURNIJE, no međutim i sam podatak na mediju se može raspasti ali i hard disk se pokvari i što onda?
E to je pitanje za milion dolara. DVD nema toliki vek trajanja. Do sada se za sigurnosne kopije praktikovalo to da se jednostavno napravi nekoliko kopija i na DVD i na hard disk i da se uploaduje na internet i slično. Što više kopija i na što više različitih mesta, to je sigurnije. A jedna kopije nije nikada 100% sigurna bez obzira na kojem je medijumu.

Takođe se pojavila nova vrsta M-DISC DVD diskova koji su večni tj. neće se oštetiti od stajanja. Međutim za sada su još uvek veoma skupi.

Hvala, probat ču i sa jednim i drugim programom. Koji corel da skinem obični ili pro?
Ovo moje čudo od recivera čita: MKV libx264 (ne čita hx264?), MP4 H264, DVD vob-ts, MPEG4, AVC HD VIDEO h264 mp4. Ne čita MOV HD Video h264, AVI vIDEO dIVX ...MORAM JOŠ PROVIJERITI??
autobus
Član foruma
 
Postova:  15
Pridružio se:  10.02.2014 20:52

Re: m2ts u dvd sa rezolucijom 1920/1080

Postod prijateljv » 14.05.2014 22:51

"Ovo moje čudo od recivera čita"
ne mozes tako da gledas sta tvoj uredjaj "cita"...
Najbolje da okacis "mediainfo" onih filmova koje lepo reprodukuje a posle onih koje nece da otvori...
Postoji mnogo drugih audio/video detalja zbog kojih tvoj (ili bilo koji drugi) uredjaj hoce ili nece da podrzi odredjeni film...ne gleda se tu samo format i video kodek
Konkretno,na onom tvom klipu sto si okacio oznaceno je na sta treba obratiti paznju :
___________________________________________________________
General
ID : 0 (0x0)
Complete name : F:\sample\sample.m2ts
Format : BDAV
Format/Info : Blu-ray Video
File size : 57.2 MiB
Duration : 18s 176ms
Overall bit rate mode : Variable
Overall bit rate : 26.4 Mbps
Maximum Overall bit rate : 28.0 Mbps

Video
ID : 4113 (0x1011)
Menu ID : 1 (0x1)
Format : AVC
Format/Info : Advanced Video Codec
Format profile : High@L4.2
Format settings, CABAC : Yes
Format settings, ReFrames : 2 frames
Format settings, GOP : M=1, N=12
Codec ID : 27
Duration : 18s 240ms
Bit rate mode : Variable
Bit rate : 25.1 Mbps
Maximum bit rate : 26.0 Mbps
Width : 1 920 pixels
Height : 1 080 pixels
Display aspect ratio : 16:9
Frame rate : 50.000 fps
Color space : YUV
Chroma subsampling : 4:2:0
Bit depth : 8 bits
Scan type : Progressive
Bits/(Pixel*Frame) : 0.242
Stream size : 54.5 MiB (95%)
_______________________________________________________________
Ima toga jos ali... ne bi verovao zbog kakvih sve "banalnih sitnica" neki film nece da ocita uredjaj.
Sem toga,video moze u potpunosti da odgovara uredjaju a da mu "ne lezi" audio kodek ili neka tonska postavka...i onda isto nece da otvori film :
_____________________________________________________________________
Audio
ID : 1
Format : AC-3
Format/Info : Audio Coding 3
Mode extension : CM (complete main)
Format settings, Endianness : Big
Codec ID : 2000
Duration : 51s 885ms
Bit rate mode : Constant
Bit rate : 448 Kbps
Channel(s) : 6 channels
Channel positions : Front: L C R, Side: L R, LFE
Sampling rate : 44.1 KHz
Bit depth : 16 bits
Compression mode : Lossy
Delay relative to video : 13ms
Stream size : 2.77 MiB (25%)
Alignment : Split accross interleaves
Interleave, duration : 42 ms (1.01 video frame)
Interleave, preload duration : 500 ms
_________________________________________________________________
Kada jednom "ubodes" podesavanja,kodeke,format itd.koji najbolje "lezi" tvom uredjaju napravi se "preset" u programu sa kojim radis - posle uvek koristis taj preset kod obrade filma i unapred vec znas da ce tvoj uredjaj da otvori takav film.
Posto podzava MKV,MP4 mislim da ti AVI (XviD,DivX) nije vise interesantan...izbor je na tebi.
Takodje,treba videti da li ce da podrzi samo remux (m2ts u MKV ili MP4)...ovde se film bukvalno samo "prepakuje" u drugi container (bez gubitka kvaliteta) i ne mora da se konvertuje : MyMP4Box,MKVMerge itd...
Uradicu takav remux onog tvog filma u MKV i MP4 kao i konvertovanje (MeGUI) pa cu ti okaciti da preuzmes i testiras.
Znaci za sve sto probas samo postavi "mediainfo" u post i navedi da li (radi/ne radi) a mi cemo da pokusamo da ustanovimo uzrok...

"IMAM TEAMVIEWER instaliran"
ako imas nekog kolegu da ti preko njega podesi ove (ili slicne) programe i konverter koje sam pomenuo ili mi se javi na PP pa cu ja to da ti odradim,pozz...
prijateljv
Član foruma
 
Postova:  192
Pridružio se:  25.01.2011 18:56

Re: m2ts u dvd sa rezolucijom 1920/1080

Postod autobus » 15.05.2014 11:02

prijateljv je napisao:"Ovo moje čudo od recivera čita"
ne mozes tako da gledas sta tvoj uredjaj "cita"...
Najbolje da okacis "mediainfo" onih filmova koje lepo reprodukuje a posle onih koje nece da otvori...
Postoji mnogo drugih audio/video detalja zbog kojih tvoj (ili bilo koji drugi) uredjaj hoce ili nece da podrzi odredjeni film...ne gleda se tu samo format i video kodek
Konkretno,na onom tvom klipu sto si okacio oznaceno je na sta treba obratiti paznju :
___________________________________________________________
General
ID : 0 (0x0)
Complete name : F:\sample\sample.m2ts
Format : BDAV
Format/Info : Blu-ray Video
File size : 57.2 MiB
Duration : 18s 176ms
Overall bit rate mode : Variable
Overall bit rate : 26.4 Mbps
Maximum Overall bit rate : 28.0 Mbps

Video
ID : 4113 (0x1011)
Menu ID : 1 (0x1)
Format : AVC
Format/Info : Advanced Video Codec
Format profile : High@L4.2
Format settings, CABAC : Yes
Format settings, ReFrames : 2 frames
Format settings, GOP : M=1, N=12
Codec ID : 27
Duration : 18s 240ms
Bit rate mode : Variable
Bit rate : 25.1 Mbps
Maximum bit rate : 26.0 Mbps
Width : 1 920 pixels
Height : 1 080 pixels
Display aspect ratio : 16:9
Frame rate : 50.000 fps
Color space : YUV
Chroma subsampling : 4:2:0
Bit depth : 8 bits
Scan type : Progressive
Bits/(Pixel*Frame) : 0.242
Stream size : 54.5 MiB (95%)
_______________________________________________________________
Ima toga jos ali... ne bi verovao zbog kakvih sve "banalnih sitnica" neki film nece da ocita uredjaj.
Sem toga,video moze u potpunosti da odgovara uredjaju a da mu "ne lezi" audio kodek ili neka tonska postavka...i onda isto nece da otvori film :
_____________________________________________________________________
Audio
ID : 1
Format : AC-3
Format/Info : Audio Coding 3
Mode extension : CM (complete main)
Format settings, Endianness : Big
Codec ID : 2000
Duration : 51s 885ms
Bit rate mode : Constant
Bit rate : 448 Kbps
Channel(s) : 6 channels
Channel positions : Front: L C R, Side: L R, LFE
Sampling rate : 44.1 KHz
Bit depth : 16 bits
Compression mode : Lossy
Delay relative to video : 13ms
Stream size : 2.77 MiB (25%)
Alignment : Split accross interleaves
Interleave, duration : 42 ms (1.01 video frame)
Interleave, preload duration : 500 ms
_________________________________________________________________
Kada jednom "ubodes" podesavanja,kodeke,format itd.koji najbolje "lezi" tvom uredjaju napravi se "preset" u programu sa kojim radis - posle uvek koristis taj preset kod obrade filma i unapred vec znas da ce tvoj uredjaj da otvori takav film.
Posto podzava MKV,MP4 mislim da ti AVI (XviD,DivX) nije vise interesantan...izbor je na tebi.
Takodje,treba videti da li ce da podrzi samo remux (m2ts u MKV ili MP4)...ovde se film bukvalno samo "prepakuje" u drugi container (bez gubitka kvaliteta) i ne mora da se konvertuje : MyMP4Box,MKVMerge itd...
Uradicu takav remux onog tvog filma u MKV i MP4 kao i konvertovanje (MeGUI) pa cu ti okaciti da preuzmes i testiras.
Znaci za sve sto probas samo postavi "mediainfo" u post i navedi da li (radi/ne radi) a mi cemo da pokusamo da ustanovimo uzrok...

"IMAM TEAMVIEWER instaliran"
ako imas nekog kolegu da ti preko njega podesi ove (ili slicne) programe i konverter koje sam pomenuo ili mi se javi na PP pa cu ja to da ti odradim,pozz...

Ok,pričekat ču dok to ne okačiš.
autobus
Član foruma
 
Postova:  15
Pridružio se:  10.02.2014 20:52

Re: m2ts u dvd sa rezolucijom 1920/1080

Postod prijateljv » 15.05.2014 20:32

evo preuzmi pa testiraj ovaj sample (353 MB) : http://dfiles.eu/files/dq4fzky2e
imas tu i remux i konvertovane MKV i MP4 (sample x6) - izvorni video je bio onaj tvoj (m2ts).Koristio sam vise programa (eac3to-Blu-Ray HD Stream Extractor,Win.Live Movie Maker,DVDFab,MKVtoolNix,MeGUI,MkvToMp4,MyMP4Box) pa probaj da li ce nesto da podrzi tvoj uredjaj...
prijateljv
Član foruma
 
Postova:  192
Pridružio se:  25.01.2011 18:56

Re: m2ts u dvd sa rezolucijom 1920/1080

Postod AllenWin » 13.11.2015 9:09

Here’s a solution to help you burn DRM protected M4V to DVD.
AllenWin
Član foruma
 
Postova:  3
Pridružio se:  17.11.2014 8:58
Prethodni

Vrati se na Video softver i Video kompresija

Ko je online

Korisnici koji su trenutno na forumu: Nema registrovanih korisnika i 3 gostiju

cron