H.264/AVC na TV

Programi, Alati, Formati, Podešavanja, Konvertovanje, Enkodiranje, Mux, Demux, Remux, DVD authoring, Blu-ray Disc authoring, Rad sa subtitlovima, Zvukom (audiom)...

Moderatori: Video Majstor, djyova, prijateljv, Ilidan

Opis foruma
- Programi, Alati, Plejeri...
- Kodeci, Filtri, Podešavanja, Analiza...
- DVD authoring, Blu-ray Disc authoring...
- Rad sa subtitlovima, Ustimavanje subtitlova, Prevodjenje...
- Video kompresija, Formati, Konvertovanje, Enkodiranje, Mux, Demux, Remux...
- Obrada zvuka (audio), Muzički programi...
...itd.

H.264/AVC na TV

Postod kontrabas » 24.02.2013 14:51

Pozdrav svima.Nisam video expert tako da moram da trazim pomoc.
Imam LG TV i filmove gledam preko usb-a koji ubacim u tv.
Prezadovoljan sam tom mogucnosti i TV cita veliki broj video formata (i codec-a).
Ono sto je kod mene sada problem je to da u zadnje vreme za video file JE sve popularniji .MP4 format pa mi se dogadja da TV neki fajl u MP4 ucita i pusti a neki ne bez obzira sto je isto MP4.

Ako neko moze da mi kaze kako to mogu da sto krace i brze bez gubitka na kvalitetu sredim i da moze TV da ucita... Hvala puno svima.
Evo ja cu sve postaviti pa neka neko iskusan vidi u cemu je ZEZ.

Ovaj file (film) cita bez problema
Complete name : ANNA KARENINA.mp4
Format : MPEG-4
Format profile : Base Media
Codec ID : isom
File size : 849 MiB
Duration : 2h 9mn
Overall bit rate mode : Variable
Overall bit rate : 917 Kbps
Encoded date : UTC 2013-02-06 05:55:29
Tagged date : UTC 2013-02-06 05:55:29

Video
ID : 1
Format : AVC
Format/Info : Advanced Video Codec
Format profile : High@L4.0
Format settings, CABAC : Yes
Format settings,ReFrames : 9 frames
Codec ID : avc1
Codec ID/Info : Advanced Video Coding
Duration : 2h 9mn
Bit rate : 818 Kbps
Maximum bit rate : 9 713 Kbps
Width : 1 280 pixels
Height : 528 pixels
Display aspect ratio : 2.40:1
Frame rate mode : Constant
Frame rate : 23.976 fps
Color space : YUV
Chroma subsampling : 4:2:0
Bit depth : 8 bits
Scan type : Progressive
Bits/(Pixel*Frame) : 0.050
Stream size : 757 MiB (89%)
Writing library : x264 core 129 r2230 1cffe9f
Encoding settings : cabac=1/ref=10/deblock=1:0:0/analyse=0x3:0x133/me=umh/subme=9/psy=1/psy_rd=1.00:0.00/mixed_ref=1/me_range=16/chroma_me=1/trellis=2 / 8x8dct=1 / cqm=0 / deadzone=21,11 / fast_pskip=1 / chroma_qp_offset=-2 / threads=12 / lookahead_threads=2 / sliced_threads=0 / nr=0 / decimate=1 / interlaced=0 / bluray_compat=0 / constrained_intra=0 / bframes=8 / b_pyramid=1 / b_adapt=2 / b_bias=2 / direct=3 / weightb=1 / open_gop=0 / weightp=2 / keyint=240 / keyint_min=23 / scenecut=40 / intra_refresh=0 / rc_lookahead=60 / rc=2pass / mbtree=1 / bitrate=818 / ratetol=1.0 / qcomp=0.60 / qpmin=10 / qpmax=51 / qpstep=4 / cplxblur=20.0 / qblur=0.5 / ip_ratio=1.40 / aq=1:1.00
Encoded date : UTC 2013-02-06 05:55:29
Tagged date : UTC 2013-02-06 05:55:43

Audio
ID : 2
Format : AAC
Format/Info : Advanced Audio Codec
Format profile : LC
Codec ID : 40
Duration : 2h 9mn
Bit rate mode : Variable
Bit rate : 96.0 Kbps
Maximum bit rate : 134 Kbps
Channel(s) : 2 channels
Channel positions : Front: L R
Sampling rate : 48.0 KHz
Compression mode : Lossy
Stream size : 88.6 MiB (10%)
Language : English
Encoded date : UTC 2013-02-06 05:55:41
Tagged date : UTC 2013-02-06 05:55:43


a ovaj file ne moze da pusti
Complete name : THE MASTER.mp4
Format : MPEG-4
Format profile : Base Media
Codec ID : isom
File size : 1.00 GiB
Duration : 2h 17mn
Overall bit rate mode : Variable
Overall bit rate : 1 042 Kbps
Encoded date : UTC 2013-02-10 01:59:01
Tagged date : UTC 2013-02-10 01:59:01

Video
ID : 1
Format : AVC
Format/Info : Advanced Video Codec
Format profile : High@L4.1
Format settings, CABAC : Yes
Format settings, ReFrames : 9 frames
Codec ID : avc1
Codec ID/Info : Advanced Video Coding
Duration : 2h 17mn
Bit rate : 942 Kbps
Maximum bit rate : 9 258 Kbps
Width : 1 280 pixels
Height : 688 pixels
Display aspect ratio : 1.85:1
Frame rate mode : Constant
Frame rate : 23.976 fps
Color space : YUV
Chroma subsampling : 4:2:0
Bit depth : 8 bits
Scan type : Progressive
Bits/(Pixel*Frame) : 0.045
Stream size : 927 MiB (90%)
Title : master.2012.1080p.bluray.x264-sparks.mkv.264#trackID=1:fps=23.976@GPAC0.5.1-DEV-rev4283
Writing library : x264 core 129 r2245 bc13772
Encoding settings : cabac=1 / ref=9 / deblock=1:0:0 / analyse=0x3:0x113 / me=hex / subme=7 / psy=1 / psy_rd=1.00:0.00 / mixed_ref=1 / me_range=16 / chroma_me=1 / trellis=1 / 8x8dct=1 / cqm=0 / deadzone=21,11 / fast_pskip=1 / chroma_qp_offset=-2 / threads=6 / lookahead_threads=1 / sliced_threads=0 / nr=0 / decimate=1 / interlaced=0 / bluray_compat=0 / constrained_intra=0 / bframes=8 / b_pyramid=2 / b_adapt=1 / b_bias=0 / direct=1 / weightb=1 / open_gop=0 / weightp=2 / keyint=240 / keyint_min=23 / scenecut=40 / intra_refresh=0 / rc_lookahead=40 / rc=2pass / mbtree=1 / bitrate=942 / ratetol=1.0 / qcomp=0.60 / qpmin=10 / qpmax=51 / qpstep=4 / cplxblur=20.0 / qblur=0.5 / ip_ratio=1.40 / aq=1:1.00
Encoded date : UTC 2013-02-10 01:59:01
Tagged date : UTC 2013-02-10 02:00:42

Audio
ID : 2
Format : AAC
Format/Info : Advanced Audio Codec
Format profile : LC
Codec ID : 40
Duration : 2h 17mn
Bit rate mode : Variable
Bit rate : 96.0 Kbps
Maximum bit rate : 128 Kbps
Channel(s) : 2 channels
Channel positions : Front: L R
Sampling rate : 48.0 KHz
Compression mode : Lossy
Stream size : 94.2 MiB (9%)
Language : English
Encoded date : UTC 2013-02-09 23:03:21
Tagged date : UTC 2013-02-10 02:00:42
kontrabas
Novi član
 
Postova:  2
Pridružio se:  24.02.2013 13:32

Re: H.264/AVC na TV

Postod Video Majstor » 15.03.2013 1:01

Hm, ovi filmovi su toliko slični da je teško reći šta uzrokuje da jedan radi a drugu ne radi. Moglo bi biti da je jednostavno oštećen fajl ovaj koji ne radi. Takođe je moguće da si koristio neko od slova ŠĐČĆŽšđčćž ili neki sličan znak u nazivu foldera od filma koji ne radi.
Pogledaj za svaki slučaj naše savete: http://www.videomajstor.com/saveti

Format profile : High@L4.1
Ovo je jedina uočljiva razlika ali to ne bi smelo da pravi problem jer Level 4.1 samo znači da omogućava bitrate preko 20000kbps ali oba filma koriste daleko manji bitrate tako da to ne bi smelo da ne radi.

Ako neko moze da mi kaze kako to mogu da sto krace i brze bez gubitka na kvalitetu sredim i da moze TV da ucita... Hvala puno svima.
Evo ja cu sve postaviti pa neka neko iskusan vidi u cemu je ZEZ.
Za ovaj konkretan film preporučujem da ga ponovo skineš pa probaš opet jer je verovatno oštećenje u pitanju. A za neki drugi slučaj slobodno postavi informacije o fajlu koji ne radi pa ćemo videti.

---
Da li tvoj TV podržava .MKV fajlove? Pitam jer bi jedno od rešenja moglo da bude remuxovanje u MKV. To je veoma brz postupak pa bi bilo dobro ako to može.
Korisnikov avatar
Video Majstor
Član foruma
 
Postova:  1799
Pridružio se:  24.08.2010 21:20

Vrati se na Video softver i Video kompresija

Ko je online

Korisnici koji su trenutno na forumu: Nema registrovanih korisnika i 3 gostiju

cron