MediaInfo - otvaranje i pregled kompletne strukture filma

Opis foruma
- Programi, Alati, Plejeri...
- Kodeci, Filtri, Podešavanja, Analiza...
- DVD authoring, Blu-ray Disc authoring...
- Rad sa subtitlovima, Ustimavanje subtitlova, Prevodjenje...
- Video kompresija, Formati, Konvertovanje, Enkodiranje, Mux, Demux, Remux...
- Obrada zvuka (audio), Muzički programi...
...itd.

Pošalji odgovor


Ovo je kontrolno pitanje radi zaštite od automatskog slanja. Morate uneti tačan odgovor.
Smajliji
:) :D ;) :( :agree: :angry: :bad: :bb: :blum2: :blush: :bomb: :bye2: :censored: :clapping: :cool: :cray: :dance2: :dash2: :diablo: :drinks: :flag_of_truce: :gamer2: :give_heart: :give_rose: :good: :heart: :heat: :help: :hi: :lol: :mail1: :mocking: :morning2: :negative: :nyam1: :read: :sarcastic: :sarcastic_hand: :scare3: :shok: :shout: :skull: :sorry: :swoon2: :training1: :unknown: :wacko2: :winner: :yahoo: :yes:
BBCode je Uključen
[img] je Uključen
[flash] je Isključen
[url] je Uključen
Smajliji su Uključeni
Revizija teme
   

Proširen prikaz Revizija teme: MediaInfo - otvaranje i pregled kompletne strukture filma

Re: MediaInfo - otvaranje i pregled kompletne strukture film

Post od presapfc » 15.08.2016 8:45

Video Majstor je napisao:Odlična ideja za ovu temu!

Ja preporučujem da se uvek koristi "Text" metoda i "Copy-paste" kopiranja teksta. Znači MediaInfo podesiti na Text mod: Slika
A informacije pošto su tekstualne, kopirate ih direktno u poruku (Copy - Paste) kao i ostali tekst koji pišete.
Nema problema sa hvatanjem screenshota, uploadovanjem i kačenjem slika uz poruku. Takođe olakšava korisnicima koji pišu odgovor jer mogu i da citiraju samo taj deo informacija koji je značajan.
:gamer2:

Evo ga moj problem DVD Player nece da cita ovo
mediainfo-preferences-text.png

General
Complete name : D:\04.Srecni ljudi.avi
Format : AVI
Format/Info : Audio Video Interleave
File size : 872 MiB
Duration : 42 min
Overall bit rate : 2 886 kb/s
Writing application : MEncoder SVN-r33883(20110719-gcc4.5.2)
Writing library : MPlayer

Video
ID : 0
Format : MPEG-4 Visual
Format profile : Simple@L1
Format settings, BVOP : No
Format settings, QPel : No
Format settings, GMC : No warppoints
Format settings, Matrix : Default (H.263)
Codec ID : DX50
Codec ID/Hint : DivX 5
Duration : 42 min
Bit rate : 2 746 kb/s
Width : 1 024 pixels
Height : 576 pixels
Display aspect ratio : 16:9
Frame rate : 25.000 FPS
Color space : YUV
Chroma subsampling : 4:2:0
Bit depth : 8 bits
Scan type : Progressive
Compression mode : Lossy
Bits/(Pixel*Frame) : 0.186
Stream size : 830 MiB (95%)
Writing library : Lavc53.8.0

Audio
ID : 1
Format : MPEG Audio
Format version : Version 1
Format profile : Layer 3
Mode : Joint stereo
Mode extension : MS Stereo
Codec ID : 55
Codec ID/Hint : MP3
Duration : 42 min
Bit rate mode : Constant
Bit rate : 128 kb/s
Channel(s) : 2 channels
Sampling rate : 44.1 kHz
Compression mode : Lossy
Stream size : 38.7 MiB (4%)
Alignment : Aligned on interleaves
Interleave, duration : 26 ms (0.65 video frame)
Interleave, preload duration : 522 ms
Writing library : LAME3.98.4ŞŞŞŞŞŞŞŞŞŞ

Re: MediaInfo - otvaranje i pregled kompletne strukture film

Post od Video Majstor » 19.04.2014 2:08

Odlična ideja za ovu temu!

Ja preporučujem da se uvek koristi "Text" metoda i "Copy-paste" kopiranja teksta. Znači MediaInfo podesiti na Text mod: Slika
A informacije pošto su tekstualne, kopirate ih direktno u poruku (Copy - Paste) kao i ostali tekst koji pišete.
Nema problema sa hvatanjem screenshota, uploadovanjem i kačenjem slika uz poruku. Takođe olakšava korisnicima koji pišu odgovor jer mogu i da citiraju samo taj deo informacija koji je značajan.
:gamer2:


mediainfo-preferences-text.png
(7.63 KiB) 49 puta

MediaInfo - otvaranje i pregled kompletne strukture filma

Post od prijateljv » 12.07.2013 0:36

Povod za kreiranje ovog uputstva je sve veci broj novih korisnika koji delimicno ili uopste ne koriste ovaj odlican alat za otvaranje i pregled kompletne strukture nekog audio-video fajla.Znaci,sa ovim alatom mozete da "otvorite" bilo koji film i da pogledate njegove generalije : format,velicinu i duzinu filma,ukupan audio/video bitrate,u kom programu je napravljen-konvertovan film,audio-video kodek,rezolucija,aspect ratio,frame/bit rate itd.
Svi ovi podaci su neophodni kada se u temi govori o problemu za neki film,konvertovanju,kompatibilnosti, kvalitetu,podesavanju kodeka,odredjivanju bitrate i sl.i pozeljno je da uvek "okacite" MediaInfo kao sliku ili text fajl.Na osnovu (mediainfo) informacija,kolege ce imati kompletan uvid o filmu,programu,kodeku i sl.koji se u temi pominje i moci ce da Vam daju sto precizniji odgovor.

Ako vec imate instalirano : pojedine verzije KLite kodek paketa vec imaju u sebi MediaInfo(Lite).
Ili kao zasebna aplikacija (moja preporuka) MediaInfo je besplatan alat i mozete ga preuzeti sa sledeceg sajta :
http://www.videohelp.com/tools/MediaInfo

trenutna aktualna verzija (v0.7.64).Preporuka je preuzimanje portable verzije koja se ne instalira. Kreirajte bilo gde na kompu jedan folder i dajte putanju da se u njega raspakuje preuzeti MediaInfo. Otvorite folder i dupli-klik na MediaInfo kao sto pokazuje strelica na sledecoj slici :

Slika
1.jpg


Otvara se pocetni prozor MediaInfo.Aktivirajte karticu-Options-i u padajuci meni pritisnite-Preferences-kao sto pokazuje strelica :

Slika
2.jpg


Otvara se Preferences prozor kao na slici :

Slika
3.jpg



U padajuci meni-Output Format-pritisnite-HTML :

Slika
4.jpg

ovo je podesavanje izgleda(view)kako ce MediaInfo da prikazuje generalije filma.Zatvorite program. MediaInfo Vam se sada integrisao u desni-klik misa i uvek je tu kada treba da otvorite i pogledate informacije o nekom filmu.Znaci,pronadjite film cije informcaije zelite da pogledate(ili okacite na forum)-obelezite ga-desni klik-MediaInfo :

Slika
5.jpg


Otvara se MediaInfo sa kompletnim podacima o tom filmu kao na slici :

Slika
6.jpg


Ako zelite okaciti sliku na forum onda uradite 2-3 (ili koliko je potrebno)screeen-a kako bi se na slikama videla komletna struktura filma:General + Video + Audio.Kada"hvatate"screen pritisnite (Alt + Print) kako bi bio uslikan samo trenutno aktivni prozor.Ove slike posebno,ili spojene u celinu sa(Photoshop-om) ili sl. kacite u Vasu temu.
Ili ako Vam je lakse : postavite misa bilo gde u otvoren prozor MediaInfo-desni klik-Select All-opet desni klik-copy :

Slika
7.jpg


predjete na forum i zalepite(paste)MediaInfo u post kao text :
_________________________________________________________________________________
General
Unique ID : 219787458509107510005192858533360450658 (0xA55986579C8CB470BA2525744F8E3C62)
Complete name : D:\Downloads\Monsters.1080pBRRip.x264\Monsters.1080pBRRip.x264.mkv
Format : Matroska
Format version : Version 4 / Version 2
File size : 81.0 MiB
Duration : 1mn 0s
Overall bit rate : 11.3 Mbps
Encoded date : UTC 2013-06-30 19:16:33
Writing application : mkvmerge v6.3.0 ('You can't stop me!') built on Jun 28 2013 20:09:41
Writing library : libebml v1.3.0 + libmatroska v1.4.0

Video
ID : 1
Format : AVC
Format/Info : Advanced Video Codec
Format profile : High@L4.1
Format settings, CABAC : Yes
Format settings, ReFrames : 3 frames
Codec ID : V_MPEG4/ISO/AVC
Duration : 1mn 0s
Bit rate : 9 570 Kbps
Width : 1 920 pixels
Height : 1 080 pixels
Display aspect ratio : 16:9
Frame rate mode : Constant
Frame rate : 23.976 fps
Color space : YUV
Chroma subsampling : 4:2:0
Bit depth : 8 bits
Scan type : Progressive
Bits/(Pixel*Frame) : 0.192
Stream size : 68.6 MiB (85%)
Language : English
Default : Yes
Forced : No

Audio
ID : 2
Format : DTS
Format/Info : Digital Theater Systems
Format profile : ES
Mode : 16
Format settings, Endianness : Big
Codec ID : A_DTS
Duration : 1mn 0s
Bit rate mode : Constant
Bit rate : 1 509 Kbps
Channel(s) : 6 channels
Channel positions : Front: L C R, Side: L R, LFE
Sampling rate : 48.0 KHz
Bit depth : 24 bits
Compression mode : Lossy
Delay relative to video : 7ms
Stream size : 10.8 MiB (13%)
Language : English
Default : Yes
Forced : No
_______________________________________________________________________________
Kada je to potrebno,gledajte da vec u prvom postu okacite MediaInfo jer ce to dodatno razjasnisti i ubrzati resenje Vaseg problema.Takodje,kolege mogu koristiti putanju ka ovom uptstvu kako bi korisnike uputili kako da koriste MediaInfo alat...

Vrh

cron